Enter Nowhere 2011 DVDRip XviD MERGE

seeders: 3
leechers: 2
Added on Jul 21, 2012 by maximersk170.26K in Movies
Torrent verified. Downloaded 10 times.

Download Fast Safe Anonymous
movies, software, shows...
Summary:
Three strangers arrive one by one to a mysterious cabin in the middle of nowhere after enduring separate life-altering predicaments. Searching for a way out of the woods, frustrated, hungry and battling to stay warm they discover their mysterious connection and realize what they have to do in order to get out of the woods alive.
Written by Stormarekilla31.79K
report summary
Available in versions: DVDDVDRip
Enter Nowhere 2011 DVDRip XviD MERGE (Size: 712.15 MB)
  Enter.Nowhere.2011.DVDRip.XviD-MERGE.avi 700.21 MB
  Enter.Nowhere.2011.DVDRip.XviD-MERGE.nfo 3.31 KB
  sample.avi 11.94 MB
  www.UsaBit.com.txt 0 bytes

Description

image
Enter Nowhere 2011 DVDRip XviD-MERGE [url="http://www.imdb.com/title/tt1631707/"]http://www.imdb.com/title/tt1631707/[/url] Genre: Horror, Mystery, Thriller Rating: 2.8 / 10 Actors: Sara Paxton, Scott Eastwood, Christopher Denham Format : AVI File size: 700 MiB Duration : 1h 29mn Overall bit rate : 1 094 Kbps Video: XviD | 968 Kbps | 640x272 | 23.976 fps Audio: MP3 | 128 Kbps | 2 channels Plot: Three strangers arrive one by one at a mysterious cabin in the middle of nowhere only to learn they've been brought together for a reason. Format : AVI Format/Info: Audio Video Interleave File size: 700 MiB Duration : 1h 29mn Overall bit rate mode: Variable Overall bit rate : 1 094 Kbps Writing application: VirtualDubMod 1.5.4.1 (build 2178/release) Writing library: VirtualDubMod build 2178/release Video ID : 0 Format : MPEG-4 Visual Format profile : Advanced Simple@L5 Format settings, BVOP: 1 Format settings, QPel: No Format settings, GMC : No warppoints Format settings, Matrix: Custom Codec ID : XVID Codec ID/Hint: XviD Duration : 1h 29mn Bit rate : 968 Kbps Width: 640 pixels Height : 272 pixels Display aspect ratio : 2.35:1 Frame rate : 23.976 fps Color space: YUV Chroma subsampling : 4:2:0 Bit depth: 8 bits Scan type: Progressive Compression mode : Lossy Bits/(Pixel*Frame) : 0.232 Stream size: 619 MiB (88%) Writing library: XviD 64 Audio ID : 1 Format : MPEG Audio Format version : Version 1 Format profile : Layer 3 Mode : Joint stereo Mode extension : MS Stereo Codec ID : 55 Codec ID/Hint: MP3 Duration : 1h 29mn Bit rate mode: Variable Bit rate : 114 Kbps Nominal bit rate : 128 Kbps Channel(s) : 2 channels Sampling rate: 48.0 KHz Compression mode : Lossy Stream size: 72.8 MiB (10%) Alignment: Aligned on interleaves Interleave, duration : 24 ms (0.58 video frame) Interleave, preload duration : 161 ms Writing library: LAME3.98r Encoding settings: -m j -V 4 -q 2 -lowpass 17 --abr 128 Language : English

image
image


image


image


image

Related Torrents

torrent name size files age seed leech

Sharing Widget


Download torrent
712.15 MB
seeders:3
leechers:2
Enter Nowhere 2011 DVDRip XviD MERGE

Trackers

tracker name Status checked seeders leechers downloads
udp://tracker.istole.it:80/announce
outdated 31 May 2014 - - -
udp://tracker.publicbt.com:80/announce
outdated 31 May 2014 - - -
udp://tracker.openbittorrent.com:80/announce
outdated 31 May 2014 - - -
http://ipv4.tracker.harry.lu/announce
outdated 04 Jul 2013 - - -
http://cpleft.com:2710/announce
outdated 04 Jul 2013 - - -
udp://tracker.1337x.org:80/announce
outdated 04 Jul 2013 - - -
http://tracker.istole.it/announce
outdated 04 Jul 2013 - - -
udp://11.rarbg.com:80/announce
private 31 May 2014 - - -
udp://fr33domtracker.h33t.com:3310/announce
deleted 04 Jul 2013 - - -
http://tracker.publicbt.com/announce
deleted 04 Jul 2013 - - -
ĀµTorrent compatible trackers list

Locations

name
KickassTorrents
Torrent hash: 464C7FF1E99208FD93EB3E547AFFC837926CDAED

All Comments

audio
9/10
video
8/10
please, leave only comments related to that torrent
or sign-in
0
zhett89 • 06 July 2013, 22:31
torrent downloaded
Show comment
audio: 8video: 8
bueno gracias
0
gargler6291 • 30 June 2013, 06:42
torrent downloaded
Show comment
audio: 9video: 8
Thanks for a good DL. Appreciate your work, thanks!!!!
0
GS_Jr.1617 • 01 June 2013, 20:51
torrent downloaded
Show comment
audio: 7video: 7
0
cultmovies251 • 31 May 2013, 04:53
torrent downloaded
Show comment
audio: 10video: 10
0
Fullgrymm3105 • 03 March 2013, 16:20
torrent downloaded
Show comment
audio: 9video: 9
Thanks uploader!
0
Fakelicious5323 • 25 January 2013, 16:15
torrent downloaded
Show comment
audio: 10video: 9
Good quality, thanks! :)
0
aestus1853 • 31 December 2012, 02:30
torrent downloaded
Show comment
audio: 9video: 9
Thank U
0
bkat331750 • 29 December 2012, 09:55
torrent downloaded
Show comment
audio: 9video: 9
Only Skipped through fast but it looks like a great copy & fast download!
0
Niardica105 • 05 August 2012, 05:22
torrent downloaded
Show comment
audio: 9video: 9
A=9 V=9
Not a bad movie, great copy. Thanks.
Show More All

User Opinions

Mike42599832, MaxDesolate7688, gambit45326, studee2565, hodm1926, bkat331750, Katband1629, peaceful_sam1136, erievon76584, 45467899261 ... And 28 more
eega94
Report a bug