Horror Story (2013) - Hindi Movies - DVDSCR - x264 - 1CD - AC-3 - Cool_Candy

seeders: 4
leechers: 3
Added on Oct 8, 2013 by jokar007129 in Movies > Bollywood
Downloaded 99 times.

Download Fast Safe Anonymous
movies, software, shows...
Horror Story (2013) - Hindi Movies - DVDSCR - x264 - 1CD - AC-3 - Cool_Candy (Size: 318.98 MB)
  Horror Story (2013) - Hindi Movies - DVDSCR - x264 - 1CD - AC-3 - Cool_Candy.mkv 313.55 MB
  shot0003.png 462.97 KB
  shot0001.png 462.97 KB
  shot0004.png 462.97 KB
  shot0005.png 462.97 KB
  shot0006.png 462.97 KB
  shot0007.png 462.97 KB
  shot0008.png 462.97 KB
  shot0009.png 462.97 KB
  shot0010.png 462.97 KB
  shot0013.png 462.97 KB
  shot0015.png 462.97 KB
  shot0016.png 462.97 KB
  Torrent downloaded from SilverTorrent.org.txt 86 bytes

Description

Horror Story (2013) - Hindi Movies - DVDSCR - x264 - 1CD - AC-3 - Cool_Candy






image








image






General
Unique ID : 263949746764281694841754685908681258054 (0xC692DF42A52F111AD2E0522AE6347446)

Complete name : Horror Story (2013) - Hindi Movies - DVDSCR - x264 - 1CD - AC-3 - Cool_Candy.mkv
Format : Matroska
Format version : Version 2
File size : 314 MiB
Duration : 1h 31mn
Overall bit rate : 478 Kbps
Writing application : Lavf53.6.0
Writing library : Lavf53.6.0


Video

ID : 1
Format : AVC
Format/Info : Advanced Video Codec
Codec ID : V_MPEG4/ISO/AVC
Duration : 1h 31mn
Bit rate : 372 Kbps
Width : 656 pixels
Height : 240 pixels
Display aspect ratio : 2.733
Frame rate mode : Constant
Frame rate : 23.976 fps
Bits/(Pixel*Frame) : 0.099
Stream size : 244 MiB (78%)
Default : Yes
Forced : No


Audio

ID : 2
Format : AC-3
Format/Info : Audio Coding 3
Mode extension : CM (complete main)
Format settings, Endianness : Big
Codec ID : A_AC3
Duration : 1h 31mn
Bit rate mode : Constant
Bit rate : 96.0 Kbps
Channel(s) : 2 channels
Channel positions : Front: L R
Sampling rate : 48.0 KHz
Bit depth : 16 bits
Compression mode : Lossy
Stream size : 63.0 MiB (20%)
Default : Yes
Forced : No








image







image








image








image







image







image







image















image








image









Related Torrents

torrent name size files age seed leech

Sharing Widget


Download torrent
318.98 MB
seeders:4
leechers:3
Horror Story (2013) - Hindi Movies - DVDSCR - x264 - 1CD - AC-3 - Cool_Candy

Trackers

tracker name Status checked seeders leechers downloads
http://tracker.torrentfrancais.com/announce
outdated 31 Oct 2013 - - -
udp://pow7.com:80/announce
outdated 31 Oct 2013 - - -
udp://tracker.openbittorrent.com:80/announce
outdated 31 Oct 2013 - - -
udp://open.demonii.com:1337/announce
outdated 31 Oct 2013 - - -
http://exodus.desync.com/announce
outdated 31 Oct 2013 - - -
udp://tracker.publicbt.com:80/announce
outdated 31 Oct 2013 - - -
udp://tracker.istole.it:80/announce
outdated 31 Oct 2013 - - -
http://tracker.ex.ua/announce
outdated 31 Oct 2013 - - -
udp://ipv4.tracker.harry.lu:80/announce
pending 31 Oct 2013 3 2 10
http://newhorizons.twentyforty.me:2710/announce
pending 31 Oct 2013 0 0 0
ĀµTorrent compatible trackers list

Locations

name
KickassTorrents
Torrent hash: 2179B7EAFE37908494AA9E56DE125700B531D200

All Comments

audio
0/10
video
0/10
please, leave only comments related to that torrent
or sign-in
0
anonymous • 11 October 2013, 21:35 Show comment
scam

User Opinions

Report a bug
w');