Ishq Garaari (2013) DVDRip - XviD - 1CD - Esub - [DDR]

seeders: 7
leechers: 6
Added on Jan 2, 2014 by SaM330.72K in Movies > Bollywood
Torrent verified. Downloaded 6,114 times.

Download Fast Safe Anonymous
movies, software, shows...
Summary:
Ishq Garaari is a story of three friends that fall in love with one beautiful girl. They do silly and naughty attempts to get the girl from each other.
Written by sajjad27407027036
report summary
Available in versions: 720pDVDRipScreener
Ishq Garaari (2013) DVDRip - XviD - 1CD - Esub - [DDR] (Size: 696.11 MB)
  Ishq Garaari (2013) DVDRip - XviD - 1CD - Esub - [DDR].avi 695.94 MB
  Ishq Garaari (2013) DVDRip - XviD - 1CD - Esub - [DDR].srt 168.64 KB
  Torrent Downloaded From ExtraTorrent.cc.txt 367 bytes
  A DDR Release !!.txt 287 bytes

Description

image

Ishq Garaari (2013) DVDRip - XviD - 1CD - Esub - [DDR]


image

---------------------------------------------------------------------------------------------------------------------------------------
Movie Info
---------------------------------------------------------------------------------------------------------------------------------------

Movie Name : Ishq Garaari
Starring : Sharry Maan, Rannvijay Singh, Mandy Takhar, Gulzar Chahal, Miss Pooja
Directed : Dheeraj Rattan
Movie Release Date : 25 Oct 2013
Ripper : AnMoL
Source : DVD9 My Own Collection
Audio : Punjabi
Subtitle : English
iMDB : http://www.imdb.com/title/tt3213204/

---------------------------------------------------------------------------------------------------------------------------------------
Tech Info
---------------------------------------------------------------------------------------------------------------------------------------

Format : AVI
Format/Info : Audio Video Interleave
File size : 696 MiB
Duration : 2h 5mn
Overall bit rate : 777 Kbps

Video
Codec ID : XVID
Codec ID/Hint : XviD
Duration : 2h 5mn
Bit rate : 688 Kbps
Width : 656 pixels
Height : 272 pixels
Display aspect ratio : 2.40:1
Frame rate : 23.976 fps
color space : YUV
Chroma subsampling : 4:2:0
Bit depth : 8 bits
Scan type : Progressive
Compression mode : Lossy
Stream size : 616 MiB (89%)

Audio
ID : 1
Format : MPEG Audio
Format version : Version 1
Format profile : Layer 3
Mode : Joint stereo
Mode extension : MS Stereo
Codec ID : 55
Codec ID/Hint : MP3
Duration : 2h 5mn
Bit rate mode : Constant
Bit rate : 80.0 Kbps
Channel(s) : 2 channels
Sampling rate : 32.0 KHz
Compression mode : Lossy
Stream size : 71.6 MiB (10%)

---------------------------------------------------------------------------------------------------------------------------------------
Screen Shot
---------------------------------------------------------------------------------------------------------------------------------------

image
image
image
image
image
image
image

---------------------------------------------------------------------------------------------------------------------------------------


Sample

[color=red]Happy New Year To All


::::Enjoy::::

Related Torrents

torrent name size files age seed leech

Sharing Widget


Download torrent
696.11 MB
seeders:7
leechers:6
Ishq Garaari (2013) DVDRip - XviD - 1CD - Esub - [DDR]

Trackers

tracker name Status checked seeders leechers downloads
udp://9.rarbg.com:2710/announce
outdated 21 May 2014 - - -
udp://tracker.openbittorrent.com:80/announce
outdated 21 May 2014 - - -
udp://open.demonii.com:1337/announce
outdated 21 May 2014 - - -
udp://tracker.publicbt.com:80/announce
outdated 21 May 2014 - - -
udp://tracker.istole.it:80/announce
outdated 21 May 2014 - - -
udp://tracker.seedceo.com:2710/announce
blocked 07 Jan 2014 - - -
µTorrent compatible trackers list

Locations

name
KickassTorrents
Torrent hash: DA6229EDDE460D9A4AE1F6424361568A667191E1

All Comments

audio
10/10
video
9/10
please, leave only comments related to that torrent
or sign-in
0
SuperIndia2717 • 02 January 2014, 18:47
torrent downloaded
Show comment
audio: 10video: 9
thanks buddy

User Opinions

Vector1628.38K, ranasalman0073795, devanshut3134, SuperIndia2717, SayantanDas202224, uchiha_fan814, Veer748, praateek370, YousafMunir90222, amansaini8773 ... And 4 more
asif_iqbal1363
Report a bug