Planes 2013 CAM XViD UNiQUE

seeders: 311
leechers: 29
Added on Aug 24, 2013 by Silmarillion289.24K in Movies
Torrent verified. Downloaded 10,467 times.

Download Fast Safe Anonymous
movies, software, shows...
Cast: Carlos Alazraqui, Dane Cook and others
Summary:
A cropdusting plane with a fear of heights lives his dream of competing in a famous around-the-world aerial race.
Written by MoonChild11.66K
report summary
Planes 2013 CAM XViD UNiQUE (Size: 700.42 MB)
  Planes.avi 695.8 MB
  Torrent downloaded from extratorrent.to.txt 339 bytes
  sample.avi 4.62 MB

Description

image


http://www.imdb.com/title/tt1691917/


Dusty Crophopper is a little cropduster plane with a fear of heights and a crazy dream of being a racer. While his friends need convincing, Dusty gets the training he needs from Skipper, a veteran fighter, and qualifies for the Wings Across the World race. In the event, Dusty finds competitors who soon learn that there is something special about this underdog as he is tested to his physical and emotional limits. In doing so, Dusty soon finds enemies, and more importantly friends, who are inspired by his dream. In the face of all obstacles, the winner of this air race will be anyone's guess.



Director:
Klay Hall

Writers:
Jeffrey M. Howard (screenplay), John Lasseter (story)

Stars:
Carlos Alazraqui, Dane Cook, Stacy Keach

Genres:
Animation | Adventure | Comedy | Family

Country:
USA

Language:
English | Spanish




Format : AVI
Format/Info : Audio Video Interleave
File size : 696 MiB
Duration : 1h 22mn
Overall bit rate : 1 174 Kbps
Writing application : VirtualDubMod 1.5.10.2 (build 2540/release)
Writing library : VirtualDubMod build 2540/release

Video
ID : 0
Format : MPEG-4 Visual
Format profile : Advanced Simple@L5
Format settings, BVOP : 2
Format settings, QPel : No
Format settings, GMC : No warppoints
Format settings, Matrix : Default (H.263)
Muxing mode : Packed bitstream
Codec ID : XVID
Codec ID/Hint : XviD
Duration : 1h 22mn
Bit rate : 1 040 Kbps
Width : 720 pixels
Height : 304 pixels
Display aspect ratio : 2.35:1
Frame rate : 16.639 fps
Color space : YUV
Chroma subsampling : 4:2:0
Bit depth : 8 bits
Scan type : Progressive
Compression mode : Lossy
Bits/(Pixel*Frame) : 0.286
Stream size : 616 MiB (89%)
Writing library : XviD 64

Audio
ID : 1
Format : MPEG Audio
Format version : Version 2
Format profile : Layer 3
Codec ID : 55
Codec ID/Hint : MP3
Duration : 1h 22mn
Bit rate mode : Constant
Bit rate : 128 Kbps
Channel(s) : 2 channels
Sampling rate : 24.0 KHz
Compression mode : Lossy
Stream size : 75.7 MiB (11%)
Alignment : Split accross interleaves
Interleave, duration : 60 ms (1.00 video frame)
Interleave, preload duration : 500 ms
Writing library : LAME3.99

Source Used LATiNO / BrYaNLaMeR - Thanks :bow:


image image

image

Related Torrents

torrent name size files age seed leech

Sharing Widget


Download torrent
700.42 MB
seeders:311
leechers:29
Planes 2013 CAM XViD UNiQUE

Trackers

tracker name Status checked seeders leechers downloads
udp://12.rarbg.me:80/announce
outdated 22 Feb 2014 - - -
udp://9.rarbg.com:2710/announce
outdated 22 Feb 2014 - - -
udp://coppersurfer.tk:6969/announce
outdated 22 Feb 2014 - - -
udp://9.rarbg.me:2710/announce
outdated 22 Feb 2014 - - -
udp://tracker.openbittorrent.com:80/announce
outdated 22 Feb 2014 - - -
udp://tracker.publicbt.com:80/announce
outdated 22 Feb 2014 - - -
udp://open.demonii.com:1337/announce
outdated 22 Feb 2014 - - -
udp://tracker.istole.it:80/announce
outdated 22 Oct 2013 - - -
udp://fr33dom.h33t.com:3310/announce
deleted 19 Oct 2013 - - -
udp://ipv4.tracker.harry.lu:80/announce
pending 30 Oct 2013 1432 280 10
ĀµTorrent compatible trackers list

Locations

name
KickassTorrents
ThePirateBay
ExtraTorrent
Torrent hash: BF3FCBCEBC1CAB330EE6E79C029E191850B7BE88

All Comments

audio
3/10
video
5/10
please, leave only comments related to that torrent
or sign-in
0
Jerry.Shadoe10.55K • 23 November 2014, 06:05
torrent downloaded
Show comment
audio: 4video: 4
legit, thanx2uploader&seederz:)
0
Ashu_0077665 • 23 December 2013, 15:08
torrent downloaded
Show comment
audio: 4video: 5
0
anonymous • 18 November 2013, 01:30 Show comment
Fuzzy video. Not worth the download. hunt down a clear copy.
0
dsbportal985 • 16 November 2013, 18:10
torrent downloaded
Show comment
audio: 5video: 3
cam????
0
blanquita13904 • 31 October 2013, 01:09
torrent downloaded
Show comment
audio: 2video: 4
0
slaywee12.55K • 29 October 2013, 17:28
torrent downloaded
Show comment
audio: 1video: 1
aweful
Show More All

User Opinions

Modearham3376, Double-D882047, Panwolf2017, VonDutch691961, topprofile1143, dieseldoc910, dilipkk898, skinninja796, njasak105, spona25 ... And 233 more
slaywee12.55K, 1ltLeutenant3041, AssKicker692950, bob19902724, tw1zt1d4202032, Warpuppet1501, So.wrong74740, UFOludek8787426, SIKZONER311, kbtb306 ... And 63 more
Report a bug