Shuddh Desi Romance 2013 Hindi Movies HDSCamRip XviD New Source +Sample ~ ☻rDX☻

seeders: 9
leechers: 4
Added on Sep 7, 2013 by teamrdx7851 in Movies > Bollywood
Torrent verified. Downloaded 10 times.

Download Fast Safe Anonymous
movies, software, shows...
Shuddh Desi Romance 2013 Hindi Movies HDSCamRip XviD New Source +Sample ~ ☻rDX☻ (Size: 706.7 MB)
  Shuddh Desi Romance 2013 Hindi Movies HDSCamRip XviD New Source ~ ☻rDX☻.avi 681.57 MB
  Sample ~ Shuddh Desi Romance 2013 Hindi Movies HDSCamRip XviD New Source ~ ☻rDX☻.avi 25.13 MB

Description

image

Shuddh Desi Romance 2013 Hindi Movies HDSCamRip XviD New Source +Sample ~ ☻rDX☻

Screen Shots :

http://myimghosting.serveftp.com/13/ShuddhDesiRomance.html

http://myimghost.cwahi.net/ShuddhDesiRomance.html


All rDX torrents are Seeding From the 1Gbps Seedbox 24X7

image

image

image

Format : AVI
Format/Info : Audio Video Interleave
File size : 682 MiB
Duration : 2h 10mn
Overall bit rate : 728 Kbps
Writing library : MPlayer

Video
ID : 0
Format : MPEG-4 Visual
Format profile : Advanced Simple@L5
Format settings, BVOP : 2
Format settings, QPel : No
Format settings, GMC : No warppoints
Format settings, Matrix : Default (H.263)
Codec ID : XVID
Codec ID/Hint : XviD
Duration : 2h 10mn
Bit rate : 594 Kbps
Width : 576 pixels
Height : 208 pixels
Display aspect ratio : 2.769
Frame rate : 25.000 fps
Color space : YUV
Chroma subsampling : 4:2:0
Bit depth : 8 bits
Scan type : Progressive
Compression mode : Lossy
Bits/(Pixel*Frame) : 0.198
Stream size : 557 MiB (82%)
Writing library : XviD 1.2.1 (UTC 2008-12-04)

Audio
ID : 1
Format : AC-3
Format/Info : Audio Coding 3
Mode extension : CM (complete main)
Format settings, Endianness : Big
Codec ID : 2000
Duration : 2h 10mn
Bit rate mode : Constant
Bit rate : 128 Kbps
Channel(s) : 2 channels
Channel positions : Front: L R
Sampling rate : 48.0 KHz
Bit depth : 16 bits
Compression mode : Lossy
Stream size : 120 MiB (18%)
Alignment : Split accross interleaves
Interleave, duration : 500 ms (12.50 video frames)
Interleave, preload duration : 500 ms

Related Torrents

torrent name size files age seed leech

Sharing Widget


Download torrent
706.7 MB
seeders:9
leechers:4
Shuddh Desi Romance 2013 Hindi Movies HDSCamRip XviD New Source +Sample ~ ☻rDX☻

Trackers

tracker name Status checked seeders leechers downloads
udp://tracker.istole.it:80/announce
active 08 Nov 2014 9 3 10
udp://tracker.publicbt.com:80/announce
active 08 Nov 2014 6 4 10
udp://tracker.openbittorrent.com:80/announce
active 08 Nov 2014 6 1 10
http://exodus.desync.com/announce
outdated 06 Apr 2014 - - -
http://tracker.coppersurfer.tk:6969/announce
deleted 27 Jan 2014 - - -
http://tracker.torrentalk.com:2710/announce
error 14 Dec 2013 - - -
http://explodie.org:6969/announce
pending 29 Jul 2014 3 0 31
µTorrent compatible trackers list

Locations

name
KickassTorrents
Torrent hash: 43D2CF8D6D987836029C34B8A3FA26CCEB7D3AF2

Top Comments

4
DC816 • 08 Sep 2013, 07:08
audio: 7video: 6
Print is Shakky and Screen is bit Cut.... Movie is cut by 25 mins or so... Last 15-17 minutes is repeat.... Should wait for the better print...
2
anonymous • 07 Sep 2013, 11:18
waiting for DDR

All Comments

audio
5/10
video
5/10
please, leave only comments related to that torrent
or sign-in
0
atifsone211 • 27 February 2014, 14:14 Show comment
nice one
0
deass1 • 18 December 2013, 15:49 Show comment
audio: 3video: 3
0
FroZenGhoSt6160 • 31 October 2013, 14:04
torrent downloaded
Show comment
audio: 5video: 5
So So
0
Troll-Boy9219 • 31 October 2013, 12:26
torrent downloaded
Show comment
audio: 5video: 6
THANKS NiCE 1
0
anonymous • 10 October 2013, 11:46 Show comment
plz upload chennai express dvd ddr plzzz waiting here
0
anonymous • 29 September 2013, 06:22 Show comment
nice
0
koprivaqi1 • 28 September 2013, 20:21 Show comment
plz.. there is no eng.sub?
0
noori5004850 • 18 September 2013, 05:55
torrent downloaded
Show comment
audio: 5video: 5
0
da_ultim8_f3k26 • 15 September 2013, 04:28
torrent downloaded
Show comment
audio: 5video: 5
Show More All

User Opinions

aceg153383, ramacole3341, Sumihira13212, aliasne03174, Hellrocker471131, nikkuboy542, vyomb187, syedatif_619182, rock69roll60, Aatman19 ... And 50 more
kion2154, njpanchal1203, Dev2000385, sujay.ryder302, hb38956277, princessraj245, Tuddie220, tasawar.joyia117, rahulk8116, dip7713 ... And 26 more
Report a bug
w');