Sooper Se Ooper 2013 DVDRip x264 Hindi ESubs - ViZNU [P2PDL]

seeders: 6
leechers: 3
Added on Dec 6, 2013 by bfab75.11K in Movies > Bollywood
Torrent verified. Downloaded 583 times.

Download Fast Safe Anonymous
movies, software, shows...
Summary:
A city guy goes to rural Rajasthan to look for his uncle.
Written by TheStrength42.02K
report summary
Available in versions: 720pDVDRip
Sooper Se Ooper 2013 DVDRip x264 Hindi ESubs - ViZNU [P2PDL] (Size: 382.07 MB)
  Torrent downloaded from p2pdl.com.txt 33 bytes
  Sooper Se Ooper 2013 DVDRip x264 Hindi ESubs - ViZNU.srt 127.97 KB
  Sooper Se Ooper 2013 DVDRip x264 Hindi ESubs - ViZNU.nfo 4.5 KB
  Sooper Se Ooper 2013 DVDRip x264 Hindi ESubs - ViZNU.mp4 376.33 MB
  sample.mp4 5.61 MB

Description

image



Sooper Se Ooper 2013 DVDRip x264 Hindi ESubs - ViZNU


Genre: Comedy
IMDb: http://www.imdb.com/title/tt3005850/
http://www.youtube.com/watch?v=BQLPw0kzEx8


Format : MPEG-4
File size : 376 MiB
Duration : 1h 48mn
Overall bit rate : 486 Kbps

Video
Format : AVC
Bit rate : 444 Kbps
Width : 624 pixels
Height : 256 pixels
Display aspect ratio : 2.40:1
Frame rate mode : Constant
Frame rate : 23.976 fps
Bit depth : 10 bits
Stream size : 343 MiB (91%)
Writing library : x264 core 140 r2377

Audio
Format : AAC
Bit rate mode : Variable
Bit rate : 39.9 Kbps
Channel count : 2 channels
Channel positions : Front: L R
Sampling rate : 48.0 KHz
Stream size : 30.9 MiB (8%)
Language : Hindi

Subtitle : Yes(English)

Source : NTSC DVD9



Screenshots:

image

image

image

image

image

image

image

image

----------------------------------------------------------------------------------------------------


Encoded using revolutionary 10bit encoding, which enables us to provide you more crispier
and sharper images at small sizes, just make sure you follow our instructions without a fault.
Recommend to you to use latest version of VLC player. Install K-Lite Codec Pack or shark007 codecs
in case of any kind of problem in playback (For non-VLC Media Player users). Alternatively, install
Core AVC codecs, the fastest decoder that there is coupled with Community Center Codec Pack and play
on Windows Media Player Classic. Check sample to be sure.
Enjoy!

Encoder Notes: Looking For Early Access To Anything You Can Provide DVDScr, R5, DVDR, BluRay, Direct
Audio, Music Releases and Seedboxes. We require dedicated servers, so as to do more and fast releases of movies.
If You Got anything to offer contact us at "prg@hush.com".

Related Torrents

torrent name size files age seed leech

Sharing Widget


Download torrent
382.07 MB
seeders:6
leechers:3
Sooper Se Ooper 2013 DVDRip x264 Hindi ESubs - ViZNU [P2PDL]

Trackers

tracker name Status checked seeders leechers downloads
udp://tracker.istole.it:80/announce
outdated 06 Jan 2014 - - -
udp://open.demonii.com:1337/announce
outdated 06 Jan 2014 - - -
udp://tracker.openbittorrent.com:80/announce
outdated 06 Jan 2014 - - -
udp://tracker.publicbt.com:80/announce
outdated 06 Jan 2014 - - -
udp://11.rarbg.me:80/announce
blocked 06 Jan 2014 - - -
udp://tracker.seedceo.com:2710/announce
blocked 06 Jan 2014 - - -
http://p2pdl.com:2710/announce
deleted 06 Jan 2014 - - -
http://tracker.nwps.ws:6969/announce
pending 06 Jan 2014 4 3 319
udp://ipv4.tracker.harry.lu:80/announce
pending 06 Jan 2014 5 2 10
http://bt.poletracker.org:2710/announce
pending 06 Jan 2014 0 0 0
µTorrent compatible trackers list

Locations

name
KickassTorrents
Torrent hash: 56B3B9EF9AEA628F803F92CDF7AB5F9214A80B3D

All Comments

audio
10/10
video
10/10
please, leave only comments related to that torrent
or sign-in
0
shilpa1438846 • 07 December 2013, 18:39 Show comment
audio: 10video: 10
nice share......

User Opinions

Report a bug