The Wolverine (2013) DVDRip XviD-MAXSPEED

seeders: 134
leechers: 31
Added on Nov 6, 2013 by piratepedia698.58K in Movies
Torrent verified. Downloaded 70,447 times.

Download Fast Safe Anonymous
movies, software, shows...
Cast: Hugh Jackman and others
Summary:
Logan, a.k.a, The Wolverine, is sent into modern-day Japan to meet an acquaintance who wants to offer him thanks. However, Logan gets convoluted into a battle where has to face not only a deviant atrocity and lethal samurai steel but also his own immortality.
Submitted by 5fingerdis47.73K
report summary
The Wolverine (2013) DVDRip XviD-MAXSPEED (Size: 1.45 GB)
  The Wolverine (2013) DVDRip XviD-MAXSPEED www.torentz.3xforum.ro.avi 1.45 GB
  sample.avi 5.75 MB
  screencaps.jpeg 589.35 KB
  The Wolverine (2013) DVDRip XviD-MAXSPEED.nfo 3.32 KB
  Torrent Downloaded From katproxy.com.txt 50 bytes
  Torrent Downloaded From ExtraTorrent.cc.txt 39 bytes
  Torrent downloaded from Rarbg.com.txt 33 bytes

Description

http://www.torentz.3xforum.ro/post/3269/1/The_Wolverine_2013_DVDRip_XviD-MAXSPEED/

image

Screens:

image
image
image
image

ScreenCaps:

image

The Wolverine (2013) DVDRip XviD-MAXSPEED
Format : AVI
Format/Info : Audio Video Interleave
Format profile : OpenDML
Format settings : rec
File size : 1.45 GiB
Duration : 2h 6mn
Overall bit rate : 1 643 Kbps
Writing application : VirtualDubMod 1.5.10.2 (build 2542/release)
Writing library : VirtualDubMod build 2542/release
Original source form : MAX TORRENTZ
Copyright : SIGISMUNT

Video
ID : 0
Format : MPEG-4 Visual
Format profile : Advanced Simple@L5
Format settings, BVOP : 2
Format settings, QPel : No
Format settings, GMC : No warppoints
Format settings, Matrix : Custom
Codec ID : XVID
Codec ID/Hint : XviD
Duration : 2h 6mn
Bit rate : 1 254 Kbps
Width : 720 pixels
Height : 304 pixels
Display aspect ratio : 2.35:1
Frame rate : 23.976 fps
Color space : YUV
Chroma subsampling : 4:2:0
Bit depth : 8 bits
Scan type : Progressive
Compression mode : Lossy
Bits/(Pixel*Frame) : 0.239
Stream size : 1.10 GiB (76%)
Writing library : XviD 1.2.1 (UTC 2008-12-04)

Audio
ID : 1
Format : AC-3
Format/Info : Audio Coding 3
Mode extension : CM (complete main)
Format settings, Endianness : Big
Codec ID : 2000
Duration : 2h 6mn
Bit rate mode : Constant
Bit rate : 384 Kbps
Channel(s) : 6 channels
Channel positions : Front: L C R, Side: L R, LFE
Sampling rate : 48.0 KHz
Bit depth : 16 bits
Compression mode : Lossy
Stream size : 346 MiB (23%)
Alignment : Aligned on interleaves
Interleave, duration : 64 ms (1.53 video frames)
Interleave, preload duration : 192 ms

Source: DVD (perfect a/v/sync quality,sample included)
This torrent is not seedbox supported,please seed it to the MAX

Note:If you have something to offer as early releases,seedboxes,
links,accounts,etc please contact us on torentz 3xforum ro

How To Get Your MAXSPEED (uTorrent)

Torrent Client - Preferences - Bandwidth - Number of connections - Set aprox. 500 for each
Torrent Client - Preferences - BiTorrent - Protocol Encryption - Forced
Bandwidth Allocation - High (Set download/upload limit - Unlimited)
Stop Other Active Torrents - Start downloading and wait for connections.
Enjoy and Seed for at least 1:1 ratio. Don't forget to say thanks/leave reviews.
If screens/Caps image host is dead google search "release name""screens" or "sample".
Greets to all actual/future p2p/scene QUALITY groups and affiliate websites.
Don't trust IMDb robot or bad ratings,always watch some trailers first.
Ignore stupid comments/fake/mislabeled/no-DVDrips/CAM/TS/RAR uploads.
Please spread this release/torrent to your friends/forums/etc.
If you need translation subs visit some subtitles sites.
Report if you see online streaming or other spam links.
Recommended movie player VLC PLAYER.

Related Torrents

torrent name size files age seed leech

Sharing Widget


Download torrent
1.45 GB
seeders:134
leechers:31
The Wolverine (2013) DVDRip XviD-MAXSPEED

Trackers

tracker name Status checked seeders leechers downloads
udp://9.rarbg.com:2710/announce
outdated 09 Sep 2014 - - -
udp://tracker.openbittorrent.com:80/announce
outdated 09 Sep 2014 - - -
udp://open.demonii.com:1337/announce
outdated 09 Sep 2014 - - -
udp://tracker.coppersurfer.tk:6969/announce
outdated 09 Sep 2014 - - -
udp://tracker.publicbt.com:80/announce
outdated 09 Sep 2014 - - -
udp://tracker.istole.it:80/announce
outdated 15 Aug 2014 - - -
udp://tracker.seedceo.com:2710/announce
blocked 08 Nov 2013 - - -
udp://tracker.zond.org:80/announce
pending 09 Sep 2014 85 30 10
udp://tracker.token.ro:80/announce
pending 09 Sep 2014 85 30 10
udp://bt.rghost.net:80/announce
pending 09 Sep 2014 85 30 10
ĀµTorrent compatible trackers list

Locations

name
KickassTorrents
Torrent hash: F86E3A675922D81451B84A99DAE8C3C4D189AFD5

Uploader Comments

7
piratepedia698.58K • 06 Nov 2013, 22:36
http://subscene.com/subtitles/the-wolverine/english/814220 english sub file for jap parts only compatible subtitle, download-extract-rename it to The Wolverine (2013) DVDRip XviD-MAXSPEED-add to vlc
5
Gibbo20122773 • 06 Nov 2013, 10:37
torrent downloaded
I have just watched it and can confirm there is no English subs for the Japanese speaking parts, at least one third of the film is spoken in Japanese so you just have to guess what is being said in those parts, but its easy to understand with the acting.
11
piratepedia698.58K • 06 Nov 2013, 10:51
Gibbo2012 it's not a third...the bigger part is from 01:19:00 to 1:22:00 and other few words parts from what i see but it's the original source you don't really need to understand what those japanese bad guys say, you will know from the acting, if you really want eng subs for "hello" , "follow me" , "i will kill you!" , "after him!" etc few jap parts just search a sub file on some subtitles sites

Last edited by piratepedia, 10 months ago

Top Comments

11
piratepedia698.58K • 06 Nov 2013, 10:51
Gibbo2012 it's not a third...the bigger part is from 01:19:00 to 1:22:00 and other few words parts from what i see but it's the original source you don't really need to understand what those japanese bad guys say, you will know from the acting, if you really want eng subs for "hello" , "follow me" , "i will kill you!" , "after him!" etc few jap parts just search a sub file on some subtitles sites

Last edited by piratepedia, 10 months ago

All Comments

audio
9/10
video
9/10
please, leave only comments related to that torrent
or sign-in
0
lbi20101575 • 10 August 2014, 14:27
torrent downloaded
Show comment
audio: 8video: 8
0
damjango152 • 08 April 2014, 09:40
torrent downloaded
Show comment
audio: 10video: 10
0
anonymous • 10 February 2014, 01:36 Show comment
how do you add the subtitles?
0
Unreality2k4680 • 01 February 2014, 04:01
torrent downloaded
Show comment
Excellent thank you